<?xml version="1.0" standalone="no"?>
<!DOCTYPE svg PUBLIC "-//W3C//DTD SVG 1.1//EN" "http://www.w3.org/Graphics/SVG/1.1/DTD/svg11.dtd" >
<svg xmlns="http://www.w3.org/2000/svg">
<metadata>Generated by IcoMoon</metadata>
<defs>
<font id="icomoon" horiz-adv-x="1024">
<font-face units-per-em="1024" ascent="960" descent="-64" />
<missing-glyph horiz-adv-x="1024" />
<glyph unicode="&#x20;" horiz-adv-x="512" d="" />
<glyph unicode="&#xe900;" glyph-name="tel" horiz-adv-x="983" d="M778.721 707.078l-36.862-36.862c-120.833 120.489-316.398 120.489-437.232 0l-36.985 36.862c141.23 140.96 369.922 140.96 511.152 0zM331.536 643.405l37.059-36.862c85.569 85.372 224.071 85.372 309.64 0l36.862 36.862c-105.941 105.818-277.57 105.818-383.512 0zM149.905 810.267c-197.801-202.274-194.164-526.56 8.11-724.362 199.054-194.656 517.124-194.68 716.203-0.049 11.992 12.705 11.427 32.709-1.278 44.701-12.238 11.575-31.406 11.501-43.571-0.123-175.365-175.365-459.693-175.34-635.057 0.025s-175.34 459.693 0.025 635.057c175.365 175.34 459.668 175.34 635.033 0 73.232-73.38 106.924-184.605 81.858-271.058-9.043-31.136-25.779-59.495-48.658-82.472 5.996 22.658 6.439 46.421 1.327 69.276-0.467 4.522-1.352 8.994-2.679 13.344-12.681 23.862-27.302 46.643-43.669 68.145-18.062 28.826-172.882-33.667-152.854-72.618 15.285-21.945 28.359-45.365 39-69.89 1.941-14.253-16.932-25.508-34.282-27.032-45.881-3.637-104.516 0-153.272 0h-8.257c-48.633 0-107.244-3.637-153.321 0-17.448 1.499-36.272 12.681-34.183 27.032 10.543 24.575 23.616 48.019 39 69.89 20.127 38.902-134.89 101.395-153.002 72.544-16.244-21.552-30.792-44.333-43.522-68.145-1.229-4.374-2.138-8.847-2.728-13.344-22.732-101.297 64.852-205.002 196.597-215.519 50.231-4.006 100.756-6.463 151.109-7.372v-0.147c1.376 0.074 2.728 0.074 4.104 0 1.327 0.197 2.654 0.123 3.957-0.197l0.172 0.246c66.868-3.121 133.883 0.737 199.964 11.501 173.988 34.675 234.663 134.030 255.846 206.943 36.592 126.338-22.732 258.402-97.586 333.428-200.111 199.792-524.177 199.865-724.386 0.197z" />
<glyph unicode="&#xe901;" glyph-name="mail" d="M512.205 960c-5.641 0.056-11.096-1.918-15.379-5.585l-156.393-134.051h-177.599c-12.847 0-23.273-10.426-23.273-23.273v-148.964l-131.5-112.64c-5.139-4.45-8.080-10.91-8.062-17.706v-558.545c-0.019-12.847 10.408-23.273 23.254-23.291h977.473c12.847 0 23.273 10.426 23.273 23.273v558.564c0 6.814-2.979 13.275-8.155 17.706l-131.519 112.808v148.741c0.019 12.847-10.408 23.273-23.254 23.291-0.019 0-0.037 0-0.056 0h-177.543l-156.393 134.051c-4.152 3.556-9.421 5.53-14.895 5.585l0.019 0.037zM511.926 906.007l100.054-85.644h-200.052l99.998 85.644zM186.107 773.706h651.636v-232.727h46.545v45.875l76.335-65.35-451.1-257.583-323.398 186.703-0.019 323.081zM139.562 586.854v-109.363l-76.335 44.032 76.335 65.331zM977.38 477.715v-495.244h-930.909v495.039l663.31-382.957 23.273 40.29-176.873 102.139 421.199 240.733zM442.2 680.727v-46.545h279.273v46.545h-279.273zM302.527 541.054v-46.545h418.909v46.545h-418.909zM162.853 122.126v-46.545h139.636v46.545h-139.636z" />
<glyph unicode="&#xe902;" glyph-name="instagram" d="M511.986-63.972c-282.769 0-511.986 229.217-511.986 511.986s229.217 511.986 511.986 511.986c282.74 0 511.986-229.217 511.986-511.957-0.511-282.57-229.444-511.475-511.986-512.014zM511.986 914.452c-258.788 0-468.594-209.806-468.594-468.594s209.806-468.594 468.594-468.594 468.594 209.806 468.594 468.594c-0.454 258.618-209.976 468.14-468.594 468.594zM511.986 582.531c-75.488 0-136.673-61.185-136.673-136.673s61.185-136.673 136.673-136.673 136.673 61.185 136.673 136.673v0c0.255 75.233-60.532 136.418-135.765 136.673-0.312 0-0.596 0-0.908 0zM511.986 350.39c-53.92 0-97.624 43.704-97.624 97.624s43.704 97.624 97.624 97.624 97.624-43.704 97.624-97.624v0c0.199-53.693-43.136-97.397-96.829-97.595-0.284-0.028-0.539-0.028-0.795-0.028v0zM765.808 554.322c-0.539 40.497-17.822 78.979-47.734 106.308-17.567 16.914-39.248 28.89-62.916 34.708-9.933 2.497-20.121 3.973-30.366 4.342h-236.482c-16.46-2.015-32.522-6.385-47.734-12.998-30.706-15.154-55.226-40.44-69.415-71.572-6.329-14.558-10.699-29.883-13.026-45.548v-242.981c2.469-18.957 8.372-37.347 17.368-54.232 15.268-28.294 39.759-50.515 69.415-62.916 15.211-6.612 31.274-11.011 47.734-13.026h225.613c64.591 0.511 121.519 42.54 141.015 104.123 4.257 13.31 6.47 27.215 6.499 41.206l0.028 212.587zM726.758 341.706c0.199-31.472-13.253-61.497-36.893-82.299-15.438-14.644-35.275-23.782-56.417-26.024h-227.713c-50.543-0.539-94.303 35.020-104.123 84.598-1.788 7.804-2.526 15.864-2.157 23.867v210.26c-0.369 19.184 4.91 38.056 15.183 54.232 14.388 27.613 40.894 46.911 71.6 52.075 7.833 1.788 15.835 2.526 23.867 2.157h212.616c32.040 0.426 62.462-13.991 82.441-39.021 13.537-15.921 21.88-35.616 23.867-56.417v-13.026c-2.27-69.387-2.27-140.959-2.27-210.402v0zM687.709 593.372c-0.993-16.148-14.899-28.464-31.047-27.471-15.608 0.965-27.726 14.019-27.528 29.656-0.199 15.41 12.146 28.095 27.556 28.294 0.937 0 1.873-0.028 2.81-0.114 15.495-1.987 27.386-14.757 28.209-30.366z" />
<glyph unicode="&#xe903;" glyph-name="facebook" d="M511.986-63.972c-282.769 0-511.986 229.217-511.986 511.986s229.217 511.986 511.986 511.986c282.74 0 511.986-229.217 511.986-511.957-0.511-282.57-229.444-511.475-511.986-512.014zM511.986 914.452c-258.788 0-468.594-209.806-468.594-468.594s209.806-468.594 468.594-468.594 468.594 209.806 468.594 468.594c-0.454 258.618-209.976 468.14-468.594 468.594zM644.232 547.738h-91.125v58.574c-1.476 14.019 8.712 26.591 22.76 28.067 1.078 0.114 2.185 0.142 3.264 0.114h62.916v97.624h-88.94c-61.157 4.654-114.538-41.15-119.192-102.306-0.426-5.619-0.426-11.266 0-16.886v-65.101h-56.446v-101.966h56.417v-286.373h119.192v286.373h80.256l10.898 101.881z" />
<glyph unicode="&#xe904;" glyph-name="menos" d="M512-64c-282.317 0-512 229.683-512 512s229.683 512 512 512c282.317 0 512-229.683 512-512s-229.683-512-512-512zM512 891.733c-244.668 0-443.733-199.066-443.733-443.733s199.066-443.733 443.733-443.733c244.668 0 443.733 199.066 443.733 443.733s-199.066 443.733-443.733 443.733zM725.367 417.451h-433.903c-18.842 0-34.133 15.258-34.133 34.133s15.292 34.133 34.133 34.133h433.903c18.876 0 34.133-15.292 34.133-34.133s-15.258-34.133-34.133-34.133z" />
<glyph unicode="&#xe905;" glyph-name="mas" d="M508.416 200.499c-18.842 0-34.133 15.258-34.133 34.133v433.903c0 18.842 15.292 34.133 34.133 34.133s34.133-15.292 34.133-34.133v-433.903c0-18.876-15.292-34.133-34.133-34.133zM512-64c-282.317 0-512 229.683-512 512s229.683 512 512 512c282.317 0 512-229.683 512-512s-229.683-512-512-512zM512 891.733c-244.668 0-443.733-199.066-443.733-443.733s199.066-443.733 443.733-443.733c244.668 0 443.733 199.066 443.733 443.733s-199.066 443.733-443.733 443.733zM725.367 417.451h-433.903c-18.842 0-34.133 15.258-34.133 34.133s15.292 34.133 34.133 34.133h433.903c18.876 0 34.133-15.292 34.133-34.133s-15.258-34.133-34.133-34.133z" />
<glyph unicode="&#xe906;" glyph-name="mas-simple" d="M512-64c-38.421 0-69.603 31.113-69.603 69.603v884.794c0 38.421 31.182 69.603 69.603 69.603 38.49 0 69.603-31.182 69.603-69.603v-884.794c0-38.49-31.113-69.603-69.603-69.603zM954.397 378.397h-884.794c-38.421 0-69.603 31.113-69.603 69.603 0 38.421 31.182 69.603 69.603 69.603h884.794c38.49 0 69.603-31.182 69.603-69.603 0-38.49-31.113-69.603-69.603-69.603z" />
<glyph unicode="&#xe907;" glyph-name="menos-simple" d="M954.397 378.397h-884.794c-38.421 0-69.603 31.113-69.603 69.603 0 38.421 31.182 69.603 69.603 69.603h884.794c38.49 0 69.603-31.182 69.603-69.603 0-38.49-31.113-69.603-69.603-69.603z" />
<glyph unicode="&#xe908;" glyph-name="angle-d" horiz-adv-x="1682" d="M841.143-64c-21.065 0-41.106 9.070-55.003 25.015l-768 877.714c-26.624 30.427-23.552 76.507 6.875 103.278 30.281 26.624 76.361 23.698 103.278-6.875l712.85-814.811 712.997 814.665c26.624 30.574 72.85 33.499 103.131 6.875 30.427-26.624 33.499-72.85 6.875-103.278l-768-877.714c-13.897-15.799-33.938-24.869-55.003-24.869z" />
<glyph unicode="&#xe909;" glyph-name="cerrar" d="M512-64c-282.351 0-512 229.649-512 512s229.649 512 512 512 512-229.649 512-512-229.649-512-512-512zM512 891.733c-244.668 0-443.733-199.066-443.733-443.733s199.066-443.733 443.733-443.733 443.733 199.066 443.733 443.733-199.066 443.733-443.733 443.733zM306.995 204.561c-8.738 0-17.476 3.345-24.166 9.967-13.312 13.312-13.312 34.953 0 48.265l414.379 414.31c13.312 13.312 34.953 13.312 48.265 0s13.312-34.953 0-48.265l-414.379-414.31c-6.622-6.69-15.36-9.967-24.098-9.967zM721.306 204.561c-8.738 0-17.476 3.345-24.166 9.967l-414.31 414.31c-13.312 13.312-13.312 34.953 0 48.265s34.953 13.312 48.265 0l414.31-414.31c13.312-13.312 13.312-34.953 0-48.265-6.622-6.69-15.36-9.967-24.098-9.967z" />
<glyph unicode="&#xe90a;" glyph-name="carrito" horiz-adv-x="1148" d="M1066.357 462.222h-984.27c-45.271 0-82.087 36.816-82.087 82.087v36.036c0 45.271 36.816 82.087 82.087 82.087h984.27c45.271 0 82.087-36.816 82.087-82.087v-36.036c0-45.271-36.857-82.087-82.087-82.087zM82.087 621.389c-22.615 0-41.044-18.429-41.044-41.044v-36.036c0-22.615 18.429-41.044 41.044-41.044h984.27c22.656 0 41.044 18.429 41.044 41.044v36.036c0 22.615-18.388 41.044-41.044 41.044h-984.27zM142.093 629.434c-5.254 0-10.507 2.011-14.529 5.992-8.004 8.004-8.004 21.014 0 29.018l281.026 281.026c8.004 8.004 21.014 8.004 29.018 0s8.004-21.014 0-29.018l-281.026-281.026c-3.981-3.981-9.235-5.992-14.488-5.992zM1008.609 629.434c-5.254 0-10.507 2.011-14.529 5.992l-281.026 281.026c-8.004 8.004-8.004 21.014 0 29.018s21.014 8.004 29.018 0l281.026-281.026c8.004-8.004 8.004-21.014 0-29.018-4.022-3.981-9.276-5.992-14.488-5.992zM163.313 467.722l42.973-489.898h748.104l57.256 489.898h-848.333zM114.594 494.195h939.409l-63.166-558.195h-822.065l-54.178 558.195zM995.393-69.172h-831.3l-0.451 4.638-54.711 563.818h950.819l-64.357-568.456zM173.41-58.911h812.871l62.017 547.975h-928.040l53.152-547.975zM958.987-27.307h-757.38l-43.876 500.159h859.702l-0.698-5.746-57.749-494.413zM211.006-17.046h738.828l56.025 479.678h-836.964l42.111-479.678z" />
<glyph unicode="&#xe90b;" glyph-name="cerrar-simple" d="M41.407-51.876c-7.497 0-14.993 2.87-20.733 8.551-11.421 11.421-11.421 29.987 0 41.407l941.185 941.185c11.421 11.421 29.987 11.421 41.407 0s11.421-29.987 0-41.407l-941.185-941.185c-5.681-5.681-13.178-8.551-20.674-8.551zM982.651-51.876c-7.497 0-14.993 2.87-20.733 8.551l-941.185 941.185c-11.421 11.421-11.421 29.987 0 41.407s29.987 11.421 41.407 0l941.185-941.185c11.421-11.421 11.421-29.987 0-41.407-5.681-5.681-13.178-8.551-20.674-8.551z" />
<glyph unicode="&#xe90c;" glyph-name="ada" d="M512-64c-282.316 0-512 229.684-512 512s229.684 512 512 512c282.316 0 512-229.684 512-512s-229.684-512-512-512zM512 931.787c-266.756 0-483.787-217.030-483.787-483.787s217.030-483.787 483.787-483.787 483.787 217.030 483.787 483.787-217.030 483.787-483.787 483.787zM510.251 593.298l-100.721 25.18-88.632-88.632c-6.179-6.179-16.209-6.179-22.387 0s-6.179 16.209 0 22.387l94.966 94.966c3.922 3.964 9.635 5.572 15.038 4.232l126.889-31.74c0.48-0.127 0.945-0.282 1.411-0.466 8.182-3.075 12.329-12.202 9.254-20.384 0 0 0 0 0 0l-34.082-90.847c44.817-21.682 78.235-61.463 91.862-109.355h149.051c8.746-0.028 15.799-7.138 15.785-15.87-0.014-2.44-0.578-4.853-1.679-7.039l-94.923-190.002c-3.597-7.97-12.964-11.511-20.934-7.928-7.97 3.597-11.511 12.964-7.928 20.934 0.169 0.367 0.353 0.734 0.55 1.086l83.511 167.037h-117.551c0.466-5.205 0.705-10.481 0.705-15.828-0.113-96.052-78.066-173.822-174.104-173.709-96.052 0.127-173.822 78.080-173.709 174.132s78.066 173.822 174.104 173.709c15.419-0.014 30.781-2.088 45.663-6.15l27.861 74.243v0.042zM575.974 379.385l-0.085 0.395c-16.716 77.445-93.047 126.692-170.493 109.975s-126.692-93.047-109.975-170.493 93.047-126.692 170.493-109.975c77.29 16.674 126.522 92.751 110.060 170.098zM642.091 699.324c0 26.224-21.259 47.483-47.483 47.483s-47.483-21.259-47.483-47.483 21.259-47.483 47.483-47.483v0c26.224 0.014 47.469 21.259 47.483 47.483zM673.747 699.324c0-43.702-35.436-79.138-79.138-79.138s-79.138 35.436-79.138 79.138 35.436 79.138 79.138 79.138c43.702-0.014 79.138-35.436 79.138-79.138v0z" />
<glyph unicode="&#xe90d;" glyph-name="timer" d="M805.041 106.674c9.414 0.029 17.039 7.653 17.067 17.067v136.525c-0.014 9.429-7.667 17.053-17.082 17.053-9.414-0.014-17.039-7.638-17.053-17.053v-136.539c-0.029-9.4 7.566-17.024 16.966-17.053 0.029 0 0.072 0 0.101 0zM793.099 67.586c-3.321-3.148-5.184-7.537-5.126-12.115-0.014-9.429 7.624-17.082 17.053-17.082s17.082 7.624 17.082 17.053c0 0.014 0 0.029 0 0.043 0.072 9.371-7.48 17.039-16.851 17.111-4.563 0.014-8.938-1.776-12.158-5.010zM529.060 515.916v173.056c0 9.429-7.638 17.067-17.067 17.067s-17.067-7.638-17.067-17.067v-173.056c-24.706-6.353-43.809-25.977-49.498-50.856h-121.161c-9.429-0.014-17.053-7.667-17.039-17.096 0.014-9.414 7.638-17.039 17.039-17.053h122.533c10.526-36.099 48.314-56.834 84.413-46.307s56.834 48.314 46.307 84.413c-6.729 23.089-25.125 40.907-48.415 46.899h-0.043zM511.993 415.908c-18.858 0-34.135 15.291-34.135 34.135s15.277 34.135 34.135 34.135c18.843 0 34.135-15.277 34.135-34.135v0c-0.058-18.829-15.306-34.077-34.135-34.135zM512.007 791.377c9.414 0.014 17.039 7.653 17.067 17.067v17.067c0 9.429-7.638 17.067-17.067 17.067s-17.067-7.638-17.067-17.067v-17.067c0.029-9.414 7.653-17.039 17.067-17.067zM512.007 108.71c-9.414-0.029-17.039-7.653-17.067-17.067v-17.067c0-9.429 7.638-17.067 17.067-17.067s17.067 7.638 17.067 17.067v17.067c-0.029 9.414-7.653 17.039-17.067 17.067zM870.394 432.976h17.067c9.429 0 17.067 7.638 17.067 17.067s-7.638 17.067-17.067 17.067v0h-17.067c-9.429 0-17.067-7.638-17.067-17.067s7.638-17.067 17.067-17.067zM153.606 467.111h-17.067c-9.429 0-17.067-7.638-17.067-17.067s7.638-17.067 17.067-17.067v0h17.067c9.429 0 17.067 7.638 17.067 17.067s-7.638 17.067-17.067 17.067zM765.448 686.416c4.52 0.014 8.866 1.805 12.115 4.953l12.115 12.115c6.642 6.642 6.642 17.428 0 24.071s-17.428 6.642-24.071 0v0l-12.115-12.115c-6.642-6.628-6.657-17.385-0.029-24.042 0.014 0 0.029-0.014 0.029-0.029 3.162-3.177 7.465-4.967 11.956-4.953zM246.437 208.732l-12.115-12.115c-6.642-6.628-6.657-17.385-0.029-24.042 0.014 0 0.029-0.014 0.029-0.029 3.206-3.22 7.566-5.010 12.115-4.953 4.52 0.014 8.866 1.79 12.115 4.953l12.115 12.115c6.642 6.628 6.657 17.399 0.029 24.042-0.014 0.014-0.029 0.029-0.029 0.029-6.7 6.657-17.529 6.657-24.229 0zM258.567 727.554c-6.642 6.642-17.428 6.642-24.071 0s-6.642-17.428 0-24.071v0l12.115-12.115c3.206-3.22 7.566-5.010 12.115-4.953 4.52 0.014 8.866 1.805 12.115 4.953 6.642 6.628 6.657 17.399 0.029 24.042-0.014 0.014-0.029 0.029-0.029 0.029l-12.274 12.115zM1024 448.007c0.245 283.027-228.98 512.657-512.007 512.902s-512.657-228.98-512.902-512.007 228.98-512.657 512.007-512.902c60.588-0.058 120.699 10.627 177.547 31.579 34.25-20.663 73.497-31.579 113.494-31.579 122.475 0.116 221.746 99.386 221.862 221.862 0 39.997-10.916 79.244-31.579 113.494 20.879 56.559 31.565 116.367 31.579 176.652zM654.842-8.018c-251.722-78.724-519.602 61.526-598.326 313.249s61.526 519.602 313.263 598.326c251.722 78.724 519.602-61.526 598.326-313.263 29.052-92.889 29.023-192.434-0.072-285.308-1.372 1.531-2.888 2.888-4.332 4.332-2.729 3.076-5.631 5.978-8.534 8.664s-5.458 4.953-8.187 7.508c-2.729 2.556-5.458 4.606-8.36 6.83s-6.31 4.779-9.559 7.22c-2.729 1.877-5.631 3.754-8.534 5.631-3.408 2.224-6.83 4.332-10.238 6.31-3.076 1.704-6.151 3.249-9.212 4.779-3.408 1.704-7.003 3.581-10.584 5.126s-7.22 2.888-10.757 4.101c-3.538 1.213-6.657 2.556-10.108 3.754-4.101 1.372-8.36 2.383-12.634 3.408-3.076 0.852-5.978 1.704-9.039 2.383-5.126 1.025-10.238 1.704-15.364 2.556-2.383 0.347-4.779 0.852-7.22 1.025-7.855 0.679-15.537 1.198-23.377 1.198-122.461-0.202-221.645-99.488-221.717-221.948 0-7.855 0.505-15.696 1.198-23.204 0.347-2.383 0.852-4.779 1.198-7.335 0.679-5.126 1.372-10.238 2.383-15.364 0.679-3.076 1.531-6.151 2.383-9.212 1.025-4.332 2.050-8.534 3.408-12.634 1.025-3.408 2.383-6.83 3.754-10.238s2.556-7.22 4.101-10.584c1.545-3.364 3.408-7.22 5.126-10.584 1.531-3.076 3.076-6.151 4.779-9.212 2.050-3.581 4.101-7.003 6.31-10.411 1.877-2.888 3.581-5.631 5.458-8.36 2.383-3.249 4.779-6.483 7.22-9.559l6.657-8.187c2.383-2.888 4.953-5.631 7.508-8.36s5.631-5.631 8.534-8.534c1.617-1.227 3.148-2.614 4.548-4.101zM802.124-29.865c-36.589-0.029-72.385 10.714-102.91 30.886-6.195 4.057-12.129 8.49-17.746 13.313-1.025 0.852-2.050 1.877-2.888 2.729-4.245 3.711-8.288 7.638-12.115 11.783-1.704 1.704-3.408 3.581-4.953 5.458-3.076 3.408-5.978 7.22-8.664 10.757-1.531 2.050-3.076 3.928-4.606 5.978-3.408 4.953-6.657 10.238-9.732 15.537-0.852 1.386-1.588 2.83-2.224 4.332-2.873 5.371-5.429 10.887-7.682 16.548-0.852 2.224-1.704 4.433-2.383 6.657-1.704 4.433-3.076 9.039-4.433 13.66-0.679 2.383-1.372 4.779-1.877 7.22-1.17 4.837-2.079 9.732-2.729 14.67-0.347 2.224-0.679 4.332-1.025 6.483-1.17 7.22-1.733 14.526-1.704 21.847 0.072 103.646 84.081 187.64 187.712 187.712 7.234-0.029 14.468-0.491 21.659-1.372 2.224-0.347 4.433-0.679 6.483-1.025 4.953-0.679 9.905-1.704 14.67-2.729 2.383-0.505 4.953-1.198 7.335-1.877 4.635-1.213 9.183-2.7 13.66-4.433 2.224-0.852 4.433-1.531 6.657-2.383 5.66-2.238 11.176-4.808 16.548-7.682 1.372-0.679 2.888-1.531 4.332-2.383 5.357-2.96 10.541-6.209 15.537-9.732 2.050-1.372 4.101-3.076 5.978-4.606 3.74-2.7 7.321-5.588 10.757-8.664 1.877-1.704 3.754-3.249 5.458-4.953 4.072-3.826 7.927-7.869 11.552-12.115 0.852-1.025 1.877-1.877 2.729-3.076 4.779-5.66 9.227-11.58 13.313-17.746 20.302-30.482 31.117-66.291 31.059-102.91 0.029-103.733-84.023-187.842-187.77-187.886v0z" />
<glyph unicode="&#xe90e;" glyph-name="alert" horiz-adv-x="1484" d="M1291.758 583.322c-15.039-0.033-29.733-4.502-42.232-12.846v98.136c0.115 160.833-130.177 291.306-291.010 291.405-123.597 0.082-233.771-77.852-274.849-194.408-53.627 151.73-220.1 231.264-371.83 177.637-116.407-41.144-194.243-151.169-194.292-274.634v-98.070c-34.399 23.351-81.216 14.38-104.567-20.036-8.509-12.549-13.028-27.358-12.978-42.513v-221.238c0-9.202 7.47-16.672 16.672-16.672 0 0 0 0 0 0h102.555c-0.858-3.644-1.336-7.371-1.402-11.115v-56.167c0-24.587 19.937-44.525 44.525-44.525h151.713v-188.982h-179.583c-9.218 0-16.705-7.487-16.705-16.705s7.487-16.705 16.705-16.705h1098.636c2.787 0 5.541 0.709 7.965 2.078 5.376 2.902 8.707 8.542 8.641 14.66-0.016 9.169-7.437 16.623-16.606 16.672h-189.642v77.044c-13.11 14.38-24.39 30.326-33.608 47.46v-125.048h-122.228v189.098h99.141c-2.226 10.999-3.644 22.147-4.222 33.344h-282.22v78.314h291.059c3.331 11.428 7.52 22.609 12.516 33.41h-244.671v204.483c0 35.29-24.472 65.88-58.904 73.631v87.285c-1.138 142.446 113.406 258.853 255.852 259.991s258.853-113.406 259.991-255.852c0.016-1.369 0.016-2.754 0-4.123v-229.912c11.148 0 22.295-0.775 33.344-2.342v71.701c0.544 23.252 19.838 41.672 43.090 41.128 22.625-0.528 40.781-18.832 41.128-41.457v-100.807c11.89-6.893 23.136-14.825 33.608-23.697v125.048c-0.297 41.589-34.004 75.181-75.593 75.329zM117.809 303.18h-84.481v204.483c-0.181 23.334 18.585 42.397 41.919 42.579 23.021 0.181 41.952-18.107 42.562-41.111v-205.951zM151.153 668.611c1.138 142.446 117.545 256.989 259.991 255.852 140.83-1.121 254.73-115.022 255.852-255.852v-87.219c-34.416-7.767-58.871-38.341-58.904-73.631v-204.582h-445.823c-3.743-0.066-7.47-0.544-11.115-1.402v366.833zM162.333 191.192c-6.151 0-11.148 4.964-11.181 11.115v56.068c0.033 6.151 5.030 11.115 11.181 11.115h504.612v-78.314l-504.612 0.016zM469.652-31.25h-122.228v189.098h122.228v-189.098zM854.295 157.798v-189.048h-351.332v189.098l351.332-0.049zM725.916 507.679v-204.846h-84.432v204.582c0.379 23.334 19.607 41.936 42.942 41.556 22.691-0.379 41.029-18.601 41.54-41.292h-0.049zM1367.334 424.93c-35.141 24.093-75.527 39.478-117.809 44.854-11.065 1.369-22.196 2.061-33.344 2.078v0c-109.662-0.132-208.161-67.067-248.678-168.963-4.271-10.9-7.85-22.064-10.719-33.41-5.343-21.306-8.031-43.172-8.031-65.138 0-4.419 0.132-8.839 0.33-13.192 0.528-11.181 1.781-22.328 3.743-33.344 8.014-45.481 27.704-88.109 57.173-123.679 10.208-12.285 21.454-23.648 33.608-34.004 48.235-40.831 109.382-63.241 172.574-63.258 8.427 0 16.738 0.396 24.967 1.204 147.047 13.737 255.126 144.078 241.389 291.125-7.388 79.105-49.571 150.839-115.137 195.743l-0.066-0.016zM1216.115-29.667c-65.666 0-128.297 27.622-172.574 76.104-13.11 14.38-24.39 30.326-33.608 47.46-10.785 20.069-18.568 41.606-23.087 63.934-2.226 10.999-3.644 22.147-4.222 33.344-0.264 4.354-0.396 8.773-0.396 13.192-0.033 22.048 3.084 43.98 9.235 65.138 3.331 11.428 7.52 22.609 12.516 33.41 38.423 82.535 121.156 135.371 212.201 135.487v0c11.148 0 22.295-0.775 33.344-2.342 127.934-18.436 216.719-137.086 198.283-265.037-16.59-115.203-115.319-200.707-231.693-200.674v-0.016zM1216.148 161.163c-8.641-0.544-16.128 5.986-16.738 14.627v194.919c1.237 9.251 9.729 15.732 18.964 14.512 7.553-1.006 13.489-6.943 14.512-14.512v-194.935c-0.627-8.641-8.097-15.155-16.738-14.611zM1216.148 62.945c-9.251 0-16.738 7.487-16.738 16.738v0 36.411c0.016 9.251 7.52 16.738 16.754 16.721s16.705-7.487 16.721-16.721v-36.411c0-9.251-7.487-16.738-16.738-16.738v0z" />
<glyph unicode="&#xe90f;" glyph-name="term" d="M614.361 584.543h-426.633c-9.434 0-17.058-7.646-17.058-17.058 0-9.434 7.646-17.058 17.058-17.058h426.633c9.434 0 17.058 7.646 17.058 17.058s-7.625 17.058-17.058 17.058v0zM187.729 686.936h170.67c9.434 0 17.058 7.646 17.058 17.058s-7.646 17.058-17.058 17.058h-170.67c-9.434 0-17.058-7.646-17.058-17.058s7.625-17.058 17.058-17.058zM631.463 430.952c-0.086 9.391-7.711 16.994-17.101 17.058h-426.633c-9.434 0-17.058-7.646-17.058-17.058s7.646-17.058 17.058-17.058h426.633c9.412 0.043 17.015 7.646 17.101 17.058zM494.931 294.42c-0.086 9.391-7.668 16.972-17.058 17.058h-290.144c-9.434 0-17.058-7.646-17.058-17.058s7.646-17.058 17.058-17.058h290.122c9.391 0.065 16.994 7.668 17.080 17.058zM187.729 174.947c-9.434 0-17.058-7.646-17.058-17.058s7.646-17.058 17.058-17.058h238.947c9.434 0 17.058 7.646 17.058 17.058s-7.646 17.058-17.058 17.058v0h-238.947zM34.138 925.862h494.931v-238.925h238.925v-290.122h34.138v314.181l-249.005 249.005h-553.128v-1024h511.989v34.138h-477.851v955.723zM563.186 901.846l180.729-180.729h-180.729v180.729zM1018.702-6.492l-202.073 346.445c-10.575 18.2-33.901 24.381-52.080 13.806-5.729-3.317-10.468-8.077-13.806-13.806l-202.246-346.445c-10.64-18.135-4.545-41.483 13.591-52.101 5.858-3.446 12.535-5.234 19.341-5.234h404.34c21.021-0.043 38.123 16.972 38.166 37.994 0 6.806-1.788 13.483-5.234 19.341zM989.345-27.815c-0.668-1.357-2.068-2.197-3.575-2.154h-404.319c-1.508 0-2.865 0.84-3.575 2.154-0.775 1.249-0.775 2.843 0 4.092l202.246 346.617c0.668 1.357 2.068 2.197 3.575 2.154 1.508 0 2.886-0.818 3.575-2.154l202.246-346.617c0.582-1.314 0.517-2.822-0.172-4.092zM785.053 243.202c-9.391-0.086-16.972-7.668-17.058-17.058v-136.532c0-9.434 7.646-17.058 17.080-17.058s17.058 7.646 17.058 17.058v136.532c-0.086 9.391-7.689 16.972-17.080 17.058zM772.948 33.461c-6.698-6.634-6.763-17.425-0.129-24.123 3.231-3.274 7.646-5.105 12.255-5.062 4.523 0.022 8.874 1.809 12.126 4.954 5.988 7.409 4.825 18.243-2.585 24.231-6.311 5.105-15.335 5.105-21.668 0v0z" />
<glyph unicode="&#xe910;" glyph-name="share" horiz-adv-x="1061" d="M1060.687-64h-1060.687v450.854h62.393v-388.461h935.901v388.461h62.393zM752.589 631.062l-240.526 240.589-240.464-240.464-44.112 44.112 284.576 284.576 284.701-284.701zM480.99 934.294h62.393v-561.54h-62.393v561.54z" />
<glyph unicode="&#xe911;" glyph-name="calendar" horiz-adv-x="1122" d="M1122.176-64h-1122.176v932.672h1122.176v-932.672zM86.321 22.321h949.534v760.030h-949.534v-760.030zM71.934 648.726h1032.92v-86.321h-1032.92v86.321zM208.264 960h86.321v-238.016h-86.321v238.016zM824.655 960h86.321v-238.016h-86.321v238.016zM273.351 499.62h115.095v-115.095h-115.095v115.095zM733.73 499.62h115.095v-115.095h-115.095v115.095zM503.541 499.62h115.095v-115.095h-115.095v115.095zM273.351 269.43h115.095v-115.095h-115.095v115.095zM733.73 269.43h115.095v-115.095h-115.095v115.095zM503.541 269.43h115.095v-115.095h-115.095v115.095z" />
<glyph unicode="&#xe912;" glyph-name="caminar" horiz-adv-x="811" d="M508.846 702.462c-71 0-128.769 57.769-128.769 128.769s57.769 128.769 128.769 128.769c71 0 128.769-57.769 128.769-128.769s-57.769-128.769-128.769-128.769zM508.846 902.308c-39.231 0-71.077-31.923-71.077-71.077s31.923-71.077 71.077-71.077 71.077 31.923 71.077 71.077c0 39.231-31.846 71.077-71.077 71.077zM687.769-63.923h-133.154l6.231 252-187 181.231 114.308 312.462 101.308-165 197.231 90.769 24.077-52.462-243.692-112.077-65.692 107-60.462-165.385 178.231-172.615-5.385-218.231h74zM41.462-58.231l-41.692 122.308 209.615 85.154 159.231 438.077-128.769-45.923 8.077-155-57.615-3-10.308 197.846 284.769 101.538-210-577.385-182.846-74.231 24.154-70.769z" />
<glyph unicode="&#xe913;" glyph-name="volver" horiz-adv-x="1083" d="M225.099 389.197l370.049-370.049-83.148-83.148-512 512 512 512 83.148-83.148-370.049-370.049h857.704v-117.607h-857.704z" />
<glyph unicode="&#xe914;" glyph-name="left" horiz-adv-x="347" d="M322.691-64c-8.141 0-16.057 4.087-20.627 11.52l-298.525 487.866c-4.73 7.723-4.73 17.473 0 25.196l298.525 487.769c6.951 11.359 21.753 14.931 33.177 7.98 11.391-6.951 14.931-21.817 7.98-33.177l-290.802-475.155 290.802-475.284c6.951-11.391 3.379-26.226-7.98-33.177-3.926-2.413-8.302-3.54-12.55-3.54z" />
<glyph unicode="&#xe915;" glyph-name="right" horiz-adv-x="347" d="M24.102-63.871c-4.312 0-8.656 1.126-12.582 3.54-11.359 6.951-14.931 21.817-7.98 33.177l290.834 475.155-290.834 475.284c-6.951 11.359-3.379 26.194 7.98 33.177 11.391 6.918 26.258 3.379 33.177-7.98l298.525-487.866c4.73-7.723 4.73-17.473 0-25.196l-298.525-487.769c-4.537-7.433-12.453-11.52-20.595-11.52z" />
<glyph unicode="&#xe916;" horiz-adv-x="1373" d="M535.011-64l-518.146 518.146 67.365 67.365 450.781-450.781 753.589 753.684 67.365-67.365z" />
<glyph unicode="&#xe917;" horiz-adv-x="1373" d="M535.011 15.751l-535.011 534.915 101.095 101.095 433.916-433.916 736.724 736.724 101.095-100.999z" />
</font>
</defs>
</svg>
